Resultados 1 al 4 de 4

Tema: Stimulantia (1967)

  1. #1
    Subtitulador Avatar de sirxevi
    Fecha de ingreso
    03-04-2012
    Mensajes
    783
    Agradecimientos: 3044

    Suecia Stimulantia (1967)

    Stimulantia (1967)
    Sinopsis:
    Una película sueca en 8 episodios, cada uno de un director distinto: "Birgit Nilsson" (Arne Arnbom), "Daniel" (Ingmar Bergman), "The salary of virtue" (Hans Alfredson, Tage Danielsson), "He, She" (Jörn Donner), "Confrontations" (Lars Gorling), "The black woman in the cupboard" (Vilgot Sjöman), "The jewelery" (Erland Josephson, Gustaf Molander) and "The discovery"(Hans Abramson).

    El episodio de Ingmar Bergman es un recorrido por los dos primeros años de vida de su hijo Daniel, a partir de las imágenes del niño rodadas con cámara doméstica.
    Datos Película:
    Director: Hans Abramson, Hans Alfred, Arne Arnbom, Tage Danielsson, Lars Görling, Ingmar Bergman, Jörn Donner, Gustaf Molander, Vilgot Sjöman.
    Reparto: Hans Abramson, Hans Alfredson, Harriet Andersson, Daniel Bergman, Ingrid Bergman, Gunnar Björnstrand, Gunnel Broström, Lars Ekborg, Glenna Forster-Jones, Lena Granhagen, Inga Landgré, Käbi Laretei, Birgit Nilsson, Hans Olivecrona, Sven-Bertil Taube, Stig Westerberg.
    País: Suecia.
    Género: Drama.
    Duración: 105 Minutos.
    Más Detalles en Film Affinity
     
    Más Detalles en NordSubAdictos
    E-links:
    Bajar Película
    Torrent / Magnet:
    No Disponible
    Subtítulos:
    Español
    Descargas Directas:

    MEGA
    https://mega.co.nz/#!ppcyyCSC!SwMSpMf5Ok5spgXmm2yN6_odAIfPYnYXbKuz7tNdPrQ
    Última edición por sirxevi; 26-05-2014 a las 18:00:23 Razón: Agregar afiche

  2. Los siguientes 7 usuarios agradecen el post de sirxevi:


  3. #2
    Subtitulador Avatar de sirxevi
    Fecha de ingreso
    03-04-2012
    Mensajes
    783
    Agradecimientos: 3044

    Predeterminado

    Imágenes:

    Spoiler:
    SPOILER:





    Información Técnica:

    Spoiler:
    SPOILER:
    General
    Complete name : Stimulantia (1967).avi
    Format : AVI
    Format/Info : Audio Video Interleave
    File size : 691 MiB
    Duration : 1h 44mn
    Overall bit rate mode : Variable
    Overall bit rate : 925 Kbps
    Writing application : MEncoder Sherpya-SVN-r30075-4.2.5
    Writing library : MPlayer

    Video
    ID : 0
    Format : MPEG-4 Visual
    Format profile : [email protected]
    Format settings, BVOP : No
    Format settings, QPel : No
    Format settings, GMC : No warppoints
    Format settings, Matrix : Default (H.263)
    Codec ID : XVID
    Codec ID/Hint : XviD
    Duration : 1h 44mn
    Bit rate : 792 Kbps
    Width : 512 pixels
    Height : 384 pixels
    Display aspect ratio : 4:3
    Frame rate : 25.000 fps
    Color space : YUV
    Chroma subsampling : 4:2:0
    Bit depth : 8 bits
    Scan type : Progressive
    Compression mode : Lossy
    Bits/(Pixel*Frame) : 0.161
    Stream size : 591 MiB (86%)
    Writing library : XviD 1.2.1 (UTC 2008-12-04)

    Audio
    ID : 1
    Format : MPEG Audio
    Format version : Version 1
    Format profile : Layer 3
    Mode : Joint stereo
    Mode extension : MS Stereo
    Codec ID : 55
    Codec ID/Hint : MP3
    Duration : 1h 44mn
    Bit rate mode : Variable
    Bit rate : 121 Kbps
    Channel count : 2 channels
    Sampling rate : 48.0 KHz
    Compression mode : Lossy
    Stream size : 90.3 MiB (13%)
    Alignment : Aligned on interleaves
    Interleave, duration : 24 ms (0.60 video frame)
    Interleave, preload duration : 533 ms

  4. #3
    Subtitulador Avatar de federicio
    Fecha de ingreso
    13-04-2012
    Ubicación
    Provincia de Bs. As.
    Mensajes
    13,499
    Agradecimientos: 17899

    Predeterminado

    Bajando...!

  5. #4
    Adicto Sin Retorno Avatar de mediodia
    Fecha de ingreso
    28-10-2012
    Mensajes
    2,541
    Agradecimientos: 2602

    Predeterminado

    Gracias, sirxevi!

Información de tema

Usuarios viendo este tema

Actualmente hay 1 usuarios viendo este tema. (0 miembros y 1 visitantes)

Temas similares

  1. La Chinoise (1967)
    Por maximogorki en el foro Drama (+)
    Respuestas: 2
    Último mensaje: 30-05-2016, 11:30:07
  2. From the Drain (1967)
    Por McalvinoV en el foro Sci-Fi (+)
    Respuestas: 5
    Último mensaje: 24-09-2015, 21:51:39
  3. You Only Live Twice (1967)
    Por hacu en el foro Acción (+)
    Respuestas: 5
    Último mensaje: 15-03-2014, 14:56:51
  4. In Like Flint (1967)
    Por japezoa en el foro Acción (+)
    Respuestas: 8
    Último mensaje: 29-03-2011, 22:52:02
  5. The Big Shave (1967)
    Por japezoa en el foro Drama (+)
    Respuestas: 0
    Último mensaje: 14-03-2010, 13:43:39

Miembros que han leído este tema: 6

Permisos de publicación

  • No puedes crear nuevos temas
  • No puedes responder temas
  • No puedes subir archivos adjuntos
  • No puedes editar tus mensajes
  •