Resultados 1 al 10 de 10

Tema: The Girl King (2015)

  1. #1
    Leyenda SubAdictos Avatar de luisIreneo
    Fecha de ingreso
    02-01-2013
    Ubicación
    Córdoba
    Mensajes
    7,758
    Agradecimientos: 35251

    Finlandia The Girl King (2015)

    The Girl King (2015)
    Sinopsis:
    Coronada en 1633, a los seis años, y educada como si fuera un príncipe, la reina Cristina fue una joven dirigente enigmática y brillante que combatió a las fuerzas conservadoras para revolucionar Suecia al tiempo que experimentaba el amor y exploraba su incipiente sexualidad. Tras recibir la formación de un príncipe bajo una estricta supervisión luterana, la enigmática reina se enfrenta a una resistencia intensa en su afán por educar a sus súbditos y poner punto final a la sangrienta Guerra de los Treinta Años que enfrenta a protestantes y católicos. En medio de estos propósitos, lucha también por asimilar la pasión irresistible que siente por su dama de compañía, la hermosa condesa Ebba Sparre. Su anhelo de entender el amor discurre en paralelo a su empeño por comprender al género humano y las fuerzas violentas y limitadoras que conspiran contra ella. Dividida por el conflicto que le plantean sus aspiraciones políticas y sus deseos personales, Cristina tomará una de las decisiones más controvertidas de la historia.
    Datos Película:
    Director: Mika Kaurismäki.
    Reparto: Malin Buska, Sarah Gadon, Michael Nyqvist, François Arnaud, Laura Birn, Peter Lohmeyer, Martina Gedeck, Patrick Bauchau, Lucas Bryant, Samuli Edelmann, Hippolyte Girardot, Veera W. Vilo, Jenny Rostain, Timo Torikka, Micci Martin.
    País: Finlandia, Alemania, Canadá, Suecia, Francia.
    Género: Drama, Biográfico, Siglo XVII.
    Duración: 106 Minutos.
    Más Detalles en Film Affinity
     
    Más Detalles en NordSubAdictos
    E-links:
    Bajar Película
    Torrent / Magnet:
    Bajar Película
    Subtítulos:
    Español
    Archivos adjuntados Archivos adjuntados
    Última edición por mcozeti; 10-03-2016 a las 22:02:00 Razón: Enlances Nord

  2. Los siguientes 34 usuarios agradecen el post de luisIreneo:


  3. #2
    Leyenda SubAdictos Avatar de luisIreneo
    Fecha de ingreso
    02-01-2013
    Ubicación
    Córdoba
    Mensajes
    7,758
    Agradecimientos: 35251

    Predeterminado

    The Girl King 2015 DVDRip
    Size: 1.36 Gb
    Language: English, French, German
    Sample info:
    Duration: 01:46:09.99, start: 0.000000, bitrate: 1829 kb/s
    Stream #0:0: Video: mpeg4 (Advanced Simple Profile) (XVID / 0x44495658), yuv420p, 720x304 [SAR 1:1 DAR 45:19], 1435 kb/s, 24 fps, 24 tbr, 24 tbn, 24.01 tbc
    Stream #0:1: Audio: ac3 ([0] [0][0] / 0x2000), 48000 Hz, 5.1(side), fltp, 384 kb/s
    Capturas:
    Spoiler:
    SPOILER:



    ERROR: If you can see this, then YouTube is down or you don't have Flash installed.



    2 wins & 1 nomination.
    Última edición por luisIreneo; 09-03-2016 a las 09:32:56

  4. Los siguientes 5 usuarios agradecen el post de luisIreneo:

     chus,  fanny,  Ona,  P3CAM

  5. #3
    Subtitulador Avatar de fanny
    Fecha de ingreso
    08-07-2015
    Ubicación
    Galicia
    Edad
    46
    Mensajes
    73,194
    Agradecimientos: 149080

    Predeterminado

    Gracias Luis

  6. Los siguientes 2 usuarios agradecen el post de fanny:


  7. #4
    Subtitulador Avatar de mcozeti
    Fecha de ingreso
    16-06-2011
    Ubicación
    Hurlingham, Buenos Aires
    Mensajes
    4,807
    Agradecimientos: 18915

    Predeterminado

    Muy buena pinta Luis, espadas y besos... me gusta.
    Muchas gracias.

  8. Los siguientes 2 usuarios agradecen el post de mcozeti:


  9. #5
    Subtitulador Avatar de Fernando355
    Fecha de ingreso
    31-10-2012
    Ubicación
    Lima.
    Mensajes
    19,276
    Agradecimientos: 46087

    Predeterminado

    Estas son las mías, gracias Luis.

  10. Los siguientes 2 usuarios agradecen el post de Fernando355:


  11. #6
    Adicto Sin Retorno Avatar de afjc
    Fecha de ingreso
    26-02-2014
    Ubicación
    Santa Fe
    Mensajes
    848
    Agradecimientos: 996

    Predeterminado

    Gracias Luis, muy buena película, vale la pena verla y analizarla. Cristina abdicó y vivió el resto de su existencia en Roma convirtiéndose en una referente y mecenas de artistas. Película muy bien recibida por la comunidad lésbica por la forma natural y sin estridencias que trata el tema de la homosexualidad de la reina.

  12. Los siguientes 2 usuarios agradecen el post de afjc:


  13. #7
    Vera Franzen
    Visita Avatar de Vera Franzen

    Predeterminado

    Excelente pelicula!!!! Realmente me gusto mucho, excelentes actuaciones de las dos protagonistas. Muchas gracias Luis por subirla!!!!

  14. Los siguientes usuarios agradecen a Vera Franzen por este tema:


  15. #8
    Subtitulador Avatar de federicio
    Fecha de ingreso
    13-04-2012
    Ubicación
    Provincia de Bs. As.
    Mensajes
    13,500
    Agradecimientos: 17900

    Predeterminado

    muchas gracias luis..!
    si seguís con las finlandesas, y Vera hace lo propio, inaguramos una sección especial en la página. "no busque más, acá están las finlandesas".

  16. Los siguientes 2 usuarios agradecen el post de federicio:


  17. #9
    Vera Franzen
    Visita Avatar de Vera Franzen

    Predeterminado

    Cita Iniciado por federicio Ver mensaje
    muchas gracias luis..!
    si seguís con las finlandesas, y Vera hace lo propio, inaguramos una sección especial en la página. "no busque más, acá están las finlandesas".

  18. Los siguientes 2 usuarios agradecen el post de Vera Franzen:


  19. #10
    Adicto Sin Retorno Avatar de Ona
    Fecha de ingreso
    08-05-2014
    Mensajes
    5,814
    Agradecimientos: 10136

    Predeterminado

    Muchas gracias, Luis... Un personaje interesantisimo, me encantará ver la visión nórdica sobre ella...

  20. Los siguientes usuarios agradecen a Ona por este tema:


Información de tema

Usuarios viendo este tema

Actualmente hay 1 usuarios viendo este tema. (0 miembros y 1 visitantes)

Temas similares

  1. A Girl Like Her (2015)
    Por gabnic en el foro Drama
    Respuestas: 5
    Último mensaje: 18-12-2016, 09:11:45
  2. King Jack (2015)
    Por gabnic en el foro Drama (+)
    Respuestas: 6
    Último mensaje: 18-10-2016, 13:10:47
  3. Mon roi / My King (2015)
    Por luisIreneo en el foro Drama (+)
    Respuestas: 8
    Último mensaje: 07-05-2016, 00:06:23
  4. Final Girl (2015)
    Por the darkness en el foro Terror / Horror (+)
    Respuestas: 32
    Último mensaje: 20-07-2015, 22:33:09
  5. The Scorpion King: The Lost Throne (2015)
    Por pepe2982 en el foro Acción (+)
    Respuestas: 5
    Último mensaje: 01-01-2015, 19:19:33

Miembros que han leído este tema: 9

Permisos de publicación

  • No puedes crear nuevos temas
  • No puedes responder temas
  • No puedes subir archivos adjuntos
  • No puedes editar tus mensajes
  •