Resultados 1 al 9 de 9

Tema: Once Upon a Time in Venice (2017) [FGT] 720p / 1080p WEB-DL

  1. #1
    Amigos de SubAdictos Avatar de hacu
    Fecha de ingreso
    13-02-2010
    Mensajes
    6,939
    Agradecimientos: 5080

    Estados Unidos Once Upon a Time in Venice (2017) [FGT] 720p / 1080p WEB-DL

    Once Upon a Time in Venice (2017)
    Sinopsis:
    Steve Ford (Bruce Willis) es un investigador privado de Los Ángeles que deberá enfrentarse a una banda de gangsters para rescatar a su perro.
    Datos Película:
    Director: Mark Cullen, Robb Cullen.
    Reparto: Bruce Willis, Jason Momoa, Famke Janssen, John Goodman, Elisabeth Röhm, Ana Flavia Gavlak, Kal Penn, Adam Goldberg, Thomas Middleditch, Wood Harris, Stephanie Sigman, Maurice Compte, Adrian Martinez, Candice Coke, Billy Gardell, Keith Jardine.
    País: Estados Unidos.
    Género: Acción, Thriller, Comedia.
    Duración: 94 Minutos.
    Más Detalles en Film Affinity
     
    E-links:
    Bajar Película 1080p
    Torrent / Magnet:
    Bajar Película 720p
    Bajar Película 1080p
    Subtítulos:
    Bajar Subtítulo en Español
    Descargas Directas:

    FGT 720p
    http://nitroflare.com/view/29A826CF029B224/Once.Upon.a.Time.in.Venice.2017.720p.WEB-DL.XviD.AC3-FGT.avi
    
    http://rapidgator.net/file/50e12f56261434a4cc8a2e354c41e685/Once.Upon.a.Time.in.Venice.2017.720p.WEB-DL.XviD.AC3-FGT.avi.html
    
    http://uploaded.net/file/kg9c3o62/Once.Upon.a.Time.in.Venice.2017.720p.WEB-DL.XviD.AC3-FGT.avi
    FGT 1080p
    http://nitroflare.com/view/295F6B8A6375ABB/Once.Upon.a.Time.in.Venice.2017.1080p.WEB-DL.DD5.1.H264-FGT.mkv
    
    http://rapidgator.net/file/2bf7f9e23553d220ddae347b64d946e9/Once.Upon.a.Time.in.Venice.2017.1080p.WEB-DL.DD5.1.H264-FGT.mkv.html
    
    http://uploaded.net/file/fymf7juw/Once.Upon.a.Time.in.Venice.2017.1080p.WEB-DL.DD5.1.H264-FGT.mkv
    Última edición por maximogorki; 22-06-2017 a las 03:03:27 Razón: ..

  2. Los siguientes 19 usuarios agradecen el post de hacu:


  3. #2
    Amigos de SubAdictos Avatar de hacu
    Fecha de ingreso
    13-02-2010
    Mensajes
    6,939
    Agradecimientos: 5080

    Predeterminado

    TRAILER



    INFO FGT 720p
    Video
    ID : 0
    Format : MPEG-4 Visual
    Format profile : [email protected]
    Format settings, BVOP : No
    Format settings, QPel : No
    Format settings, GMC : No warppoints
    Format settings, Matrix : Default (H.263)
    Codec ID : XVID
    Codec ID/Hint : XviD
    Duration : 1 h 34 min
    Bit rate : 4 591 kb/s
    Width : 1 280 pixels
    Height : 530 pixels
    Display aspect ratio : 2.40:1
    Frame rate : 23.976 (24000/1001) FPS
    Color space : YUV
    Chroma subsampling : 4:2:0
    Bit depth : 8 bits
    Scan type : Progressive
    Compression mode : Lossy
    Bits/(Pixel*Frame) : 0.282
    Stream size : 3.02 GiB (92%)
    Writing library : Lavc57.24.102

    Audio
    ID : 1
    Format : AC-3
    Format/Info : Audio Coding 3
    Format settings, Endianness : Big
    Codec ID : 2000
    Duration : 1 h 34 min
    Bit rate mode : Constant
    Bit rate : 384 kb/s
    Channel(s) : 6 channels
    Channel positions : Front: L C R, Side: L R, LFE
    Sampling rate : 48.0 kHz
    Frame rate : 31.250 FPS (1536 spf)
    Bit depth : 16 bits
    Compression mode : Lossy
    Stream size : 258 MiB (8%)
    Alignment : Aligned on interleaves
    Interleave, duration : 42 ms (1.00 video frame)
    Interleave, preload duration : 512 ms
    Service kind : Complete Main
    INFO FGT 1080p
    Video
    ID : 1
    Format : AVC
    Format/Info : Advanced Video Codec
    Format profile : [email protected]
    Format settings, CABAC : Yes
    Format settings, ReFrames : 5 frames
    Codec ID : V_MPEG4/ISO/AVC
    Duration : 1 h 34 min
    Bit rate : 4 487 kb/s
    Width : 1 912 pixels
    Height : 792 pixels
    Display aspect ratio : 2.40:1
    Frame rate mode : Constant
    Frame rate : 23.976 (24000/1001) FPS
    Color space : YUV
    Chroma subsampling : 4:2:0
    Bit depth : 8 bits
    Scan type : Progressive
    Bits/(Pixel*Frame) : 0.124
    Stream size : 2.95 GiB (90%)
    Title : Once.Upon.a.Time.in.Venice.2017.1080p.WEB-DL.DD5.1.H264-FGT
    Language : English
    Default : Yes
    Forced : No
    Color range : Limited
    Color primaries : BT.709
    Transfer characteristics : BT.709
    Matrix coefficients : BT.709

    Audio
    ID : 2
    Format : AC-3
    Format/Info : Audio Coding 3
    Format settings, Endianness : Big
    Codec ID : A_AC3
    Duration : 1 h 34 min
    Bit rate mode : Constant
    Bit rate : 384 kb/s
    Channel(s) : 6 channels
    Channel positions : Front: L C R, Side: L R, LFE
    Sampling rate : 48.0 kHz
    Frame rate : 31.250 FPS (1536 spf)
    Bit depth : 16 bits
    Compression mode : Lossy
    Delay relative to video : -42 ms
    Stream size : 259 MiB (8%)
    Title : Once.Upon.a.Time.in.Venice.2017.1080p.WEB-DL.DD5.1.H264-FGT
    Language : English
    Service kind : Complete Main
    Default : Yes
    Forced : No

    Text
    ID : 3
    Format : UTF-8
    Codec ID : S_TEXT/UTF8
    Codec ID/Info : UTF-8 Plain Text
    Language : English
    Default : Yes
    Forced : No
    Última edición por hacu; 17-06-2017 a las 00:21:51

  4. Los siguientes 6 usuarios agradecen el post de hacu:


  5. #3
    Subtitulador Avatar de fanny
    Fecha de ingreso
    08-07-2015
    Ubicación
    Galicia
    Edad
    45
    Mensajes
    84,462
    Agradecimientos: 129525

    Predeterminado

    Hay un perrito!!!!!!!
    Gracias hacu, puede estar bien. Esperando subtítulos

  6. Los siguientes usuarios agradecen a fanny por este tema:

     hacu

  7. #4
    Amigos de SubAdictos Avatar de hacu
    Fecha de ingreso
    13-02-2010
    Mensajes
    6,939
    Agradecimientos: 5080

    Predeterminado

    Agregado subtítulo en Español

    Gracias TaMaBin !

  8. Los siguientes 3 usuarios agradecen el post de hacu:


  9. #5
    Administrador Avatar de maximogorki
    Fecha de ingreso
    25-01-2010
    Ubicación
    Lejos pero no Tanto.
    Edad
    56
    Mensajes
    18,280
    Agradecimientos: 3703


    Seguir a maximogorki en Twitter Agrega a maximogorki en Facebook

    Predeterminado

    Gracias @hacu

    ¡Agregado elink 1080p!
    Última edición por maximogorki; 22-06-2017 a las 03:05:04

  10. Los siguientes 2 usuarios agradecen el post de maximogorki:


  11. #6
    Subtitulador Avatar de fanny
    Fecha de ingreso
    08-07-2015
    Ubicación
    Galicia
    Edad
    45
    Mensajes
    84,462
    Agradecimientos: 129525

    Predeterminado

    Gracias Hacu, maximogorki y TaMaBin

  12. #7
    Amigos de SubAdictos Avatar de jmanuellopez76
    Fecha de ingreso
    05-02-2011
    Ubicación
    Bahia Blanca, la capital del Basquetbol en la Argentina!!
    Edad
    44
    Mensajes
    25,983
    Agradecimientos: 37728

    Predeterminado

    Gracias @hacu por el aporte de esta pelicula, pero realmente, puedo estar completamente seguro al decir que es la peor pelicula que vi en todo el 2019...
    Realmente mas alla de que trabaje Bruce Willis, el cual fue un gran actor, hoy dia esta yendo por la misma senda que Nicolas Cage y este film me abala para decirlo.
    Creo que soy una persona muy valiente en haber visto esta peliucla integramente de principio a fin, como sin duda alguna lo habra hecho @fanny...
    Imposible de recomendar, ni a tu peor enemigo.
    En IMDb tiene un 5.3 y para mi es un 2 sobre 10.


    Nuevamente el afiche promocional es lo mejor ... Lejos que tiene la pelicula!!


    "La vida es demasiado corta, para tener enemigos" Ayrton Senna

  13. Los siguientes 3 usuarios agradecen el post de jmanuellopez76:

     fanny,  hacu,  Javier9.0

  14. #8
    Peligrosamente Adicto Avatar de Javier9.0
    Fecha de ingreso
    18-12-2013
    Ubicación
    Lima
    Mensajes
    356
    Agradecimientos: 261

    Predeterminado

    Gracias por evitarme el sufrimiento @jmanuellopez76

  15. Los siguientes usuarios agradecen a Javier9.0 por este tema:


  16. #9
    Amigos de SubAdictos Avatar de jmanuellopez76
    Fecha de ingreso
    05-02-2011
    Ubicación
    Bahia Blanca, la capital del Basquetbol en la Argentina!!
    Edad
    44
    Mensajes
    25,983
    Agradecimientos: 37728

    Predeterminado

    Cita Iniciado por Javier9.0 Ver mensaje
    Gracias por evitarme el sufrimiento @jmanuellopez76
    Muchas veces uno se inmola, para salvar la vida a muchos y asi evitar suicidios en masas....

  17. Los siguientes usuarios agradecen a jmanuellopez76 por este tema:


Información de tema

Usuarios viendo este tema

Actualmente hay 1 usuarios viendo este tema. (0 miembros y 1 visitantes)

Temas similares

  1. Once Upon a Time in Venice (2017) [FGT] WEB-DL
    Por hacu en el foro Acción (+)
    Respuestas: 9
    Último mensaje: 10-01-2020, 20:20:59
  2. Time After Time: Temporada Única (2017) [HDTV] [HD] (+)
    Por gallia en el foro Temporadas Finalizadas
    Respuestas: 44
    Último mensaje: 15-07-2017, 03:38:14
  3. About Time (2013) [EVO] 720p / 1080p
    Por the darkness en el foro Romance HD (+)
    Respuestas: 5
    Último mensaje: 01-01-2014, 17:05:30
  4. Respuestas: 7
    Último mensaje: 02-08-2010, 14:58:50

Miembros que han leído este tema: 78

Permisos de publicación

  • No puedes crear nuevos temas
  • No puedes responder temas
  • No puedes subir archivos adjuntos
  • No puedes editar tus mensajes
  •