Resultados 1 al 2 de 2

Tema: Bad Frank (2017) [FGT] 720p / 1080p WEB-DL

  1. #1
    Amigos de SubAdictos Avatar de hacu
    Fecha de ingreso
    13-02-2010
    Mensajes
    6,939
    Agradecimientos: 5121

    Estados Unidos Bad Frank (2017) [FGT] 720p / 1080p WEB-DL

    Bad Frank (2017)
    Sinopsis:
    Frank Pierce lleva una vida aparentemente normal. Su vida conyugal transcurre plácidamente, pero el pasado llega. La máscara de la cordura cae en ese momento mostrándonos un Frank violento y con ganas de venganza. (Fuente: TerrorWeekend.com).
    Datos Película:
    Director: Tony Germinario.
    Reparto: Kevin Interdonato, Amanda Clayton, Tom Sizemore, Brandon Heitkamp, Russ Russo, Brian O'Halloran, Ray 'Boom Boom' Mancini, Lynn Mancinelli, Paola Grande, Nino Bless, Kirk Ponton, Mu-Shaka Benson, Joe Sernio, Laeticia Harrison-Roberts, Fiona Hardingham, Craig Blair, Frank Pelligra, Kim Cristo.
    País: Estados Unidos.
    Género: Drama, Thriller.
    Duración: 103 Minutos.
    Más Detalles en Film Affinity
     
    E-links:
    No Disponible
    Torrent / Magnet:
    Bajar Película 720p
    Bajar Película 1080p
    Subtítulos:
    No Disponible
    Descargas Directas:

    FGT 720p
    http://nitroflare.com/view/A07E812C87881CB/Bad.Frank.2017.720p.WEB-DL.XviD.AC3-FGT.avi
    
    http://rapidgator.net/file/e8905ff3fc573c86e8f55aa726802327/Bad.Frank.2017.720p.WEB-DL.XviD.AC3-FGT.avi.html
    FGT 1080p
    http://nitroflare.com/view/4E51D4B3670064C/Bad.Frank.2017.1080p.WEB-DL.DD5.1.H264-FGT.mkv
    
    http://rapidgator.net/file/06b0fb2f76bb4604bbbd15028ca1d7c8/Bad.Frank.2017.1080p.WEB-DL.DD5.1.H264-FGT.mkv.html

  2. Los siguientes 2 usuarios agradecen el post de hacu:


  3. #2
    Amigos de SubAdictos Avatar de hacu
    Fecha de ingreso
    13-02-2010
    Mensajes
    6,939
    Agradecimientos: 5121

    Predeterminado



    Bad Frank 2017 720p WEB-DL XviD AC3-FGT

    Video
    ID : 0
    Format : MPEG-4 Visual
    Format profile : [email protected]
    Format settings, BVOP : No
    Format settings, QPel : No
    Format settings, GMC : No warppoints
    Format settings, Matrix : Default (H.263)
    Codec ID : XVID
    Codec ID/Hint : XviD
    Duration : 1 h 42 min
    Bit rate : 3 371 kb/s
    Width : 1 280 pixels
    Height : 544 pixels
    Display aspect ratio : 2.35:1
    Frame rate : 23.976 (24000/1001) FPS
    Color space : YUV
    Chroma subsampling : 4:2:0
    Bit depth : 8 bits
    Scan type : Progressive
    Compression mode : Lossy
    Bits/(Pixel*Frame) : 0.202
    Stream size : 2.42 GiB (90%)
    Writing library : Lavc57.24.102

    Audio
    ID : 1
    Format : AC-3
    Format/Info : Audio Coding 3
    Format settings, Endianness : Big
    Codec ID : 2000
    Duration : 1 h 42 min
    Bit rate mode : Constant
    Bit rate : 384 kb/s
    Channel(s) : 6 channels
    Channel positions : Front: L C R, Side: L R, LFE
    Sampling rate : 48.0 kHz
    Frame rate : 31.250 FPS (1536 spf)
    Bit depth : 16 bits
    Compression mode : Lossy
    Stream size : 282 MiB (10%)
    Alignment : Aligned on interleaves
    Interleave, duration : 42 ms (1.00 video frame)
    Interleave, preload duration : 512 ms
    Service kind : Complete Main
    Bad Frank 2017 1080p WEB-DL DD5 1 H264-FGT

    Video
    ID : 1
    Format : AVC
    Format/Info : Advanced Video Codec
    Format profile : [email protected]
    Format settings, CABAC : Yes
    Format settings, ReFrames : 5 frames
    Codec ID : V_MPEG4/ISO/AVC
    Duration : 1 h 42 min
    Bit rate : 4 525 kb/s
    Width : 1 904 pixels
    Height : 808 pixels
    Display aspect ratio : 2.35:1
    Frame rate mode : Constant
    Frame rate : 23.976 (24000/1001) FPS
    Color space : YUV
    Chroma subsampling : 4:2:0
    Bit depth : 8 bits
    Scan type : Progressive
    Bits/(Pixel*Frame) : 0.123
    Stream size : 3.25 GiB (90%)
    Title : Bad.Frank.2017.1080p.WEB-DL.DD5.1.H264-FGT
    Language : English
    Default : Yes
    Forced : No
    Color range : Limited
    Color primaries : BT.709
    Transfer characteristics : BT.709
    Matrix coefficients : BT.709

    Audio
    ID : 2
    Format : AC-3
    Format/Info : Audio Coding 3
    Format settings, Endianness : Big
    Codec ID : A_AC3
    Duration : 1 h 42 min
    Bit rate mode : Constant
    Bit rate : 384 kb/s
    Channel(s) : 6 channels
    Channel positions : Front: L C R, Side: L R, LFE
    Sampling rate : 48.0 kHz
    Frame rate : 31.250 FPS (1536 spf)
    Bit depth : 16 bits
    Compression mode : Lossy
    Delay relative to video : -42 ms
    Stream size : 282 MiB (8%)
    Title : Bad.Frank.2017.1080p.WEB-DL.DD5.1.H264-FGT
    Language : English
    Service kind : Complete Main
    Default : Yes
    Forced : No

    Text
    ID : 3
    Format : UTF-8
    Codec ID : S_TEXT/UTF8
    Codec ID/Info : UTF-8 Plain Text
    Language : English
    Default : Yes
    Forced : No
    Spoiler:
    SPOILER:

    Última edición por hacu; 04-07-2017 a las 20:19:33

  4. Los siguientes usuarios agradecen a hacu por este tema:


Información de tema

Usuarios viendo este tema

Actualmente hay 1 usuarios viendo este tema. (0 miembros y 1 visitantes)

Temas similares

  1. Respuestas: 8
    Último mensaje: 10-01-2020, 22:55:40
  2. The Dinner (2017) [FGT] 720p / 1080p WEB-DL
    Por hacu en el foro Thriller / Crimen HD (+)
    Respuestas: 5
    Último mensaje: 06-09-2017, 08:33:17
  3. Bad Frank (2017) [FGT] WEB-DL
    Por hacu en el foro Drama
    Respuestas: 4
    Último mensaje: 04-07-2017, 20:18:34
  4. Wilson (2017) [GECKOS] 720p / 1080p
    Por hacu en el foro Comedia HD (+)
    Respuestas: 4
    Último mensaje: 09-06-2017, 07:05:14
  5. Robot and Frank / Robot & Frank (2012) [PublicHD] 720p
    Por pepe2982 en el foro Sci-Fi HD (+)
    Respuestas: 2
    Último mensaje: 07-03-2013, 01:21:37

Miembros que han leído este tema: 3

Permisos de publicación

  • No puedes crear nuevos temas
  • No puedes responder temas
  • No puedes subir archivos adjuntos
  • No puedes editar tus mensajes
  •